Skip to main content

Sparkplug Live at Hylands Orchard & Brewery on 2012-06-17

Audio Preview

etree
Sparkplug Live at Hylands Orchard & Brewery on 2012-06-17


Topics Disc Jam 2012


01. Hot Barbecue
02. Texas Twister
03. Do It Now
04. Get Down with The Get Down
05. Duffing Around
06. Clinton Park
07. Whip Whop
08. Everything I Play Gon B Funky


Collection Sparkplug
Band/Artist Sparkplug
Venue Hylands Orchard & Brewery
Location Sturbridge, MA

Source Schoeps Mk41>KC5>CMC6>Sonosax SX-R4(24bit/96khz) & Soundboard
Lineage WAV>USB>Macbook Pro>Audacity(mixing)>Wave Editor(tracking,fades,resample(izotope)/dither(mbit+)to 16 bit/44.1k)>XAct(FLAC 8,ffp,fix sbe)
Taped by Andy Murray
Transferred by Andy Murray

Notes

Sparkplug
2012-06-17
Disc Jam 2012
Hylands Orchard & Brewery
Sturbridge, MA

Recorded and transferred by Andy Murray

Mics were 30' from stage DFC DIN

Schoeps MK41>KC5>CMC6>Sonosax SX-R4(24bit/96khz) & Soundboard>SX-R4

WAV>USB>Macbook Pro>Audacity(mixing)Wave Editor(tracking,fades,resample(izotope)/dither(mbit+)to 16 bit/44.1k)>XAct(FLAC 8,ffp,fix sbe)

Beau Sasser - Organ
David Davis - Alto Saxophone, EWI & Vocoder
Bill Carbone - Drums
Jamemurrell Stanley - Percussion
Scott Murawski - Guitar

1 Set

length expanded size cdr WAVE problems fmt ratio filename
6:11.30 65515004 B --- -- ----- wav 1.0000 sparkplug2012-06-17_mk41sbmix_1644_d1t01.wav
10:15.63 108634220 B --- -- ----- wav 1.0000 sparkplug2012-06-17_mk41sbmix_1644_d1t02.wav
9:04.41 96058076 B --- -- ----- wav 1.0000 sparkplug2012-06-17_mk41sbmix_1644_d1t03.wav
11:16.38 119335820 B --- -- ----- wav 1.0000 sparkplug2012-06-17_mk41sbmix_1644_d1t04.wav
9:14.38 97815020 B --- -- ----- wav 1.0000 sparkplug2012-06-17_mk41sbmix_1644_d1t05.wav
6:51.74 72674492 B --- -- ----- wav 1.0000 sparkplug2012-06-17_mk41sbmix_1644_d1t06.wav
8:14.35 87223964 B --- -- ----- wav 1.0000 sparkplug2012-06-17_mk41sbmix_1644_d1t07.wav
9:32.22 100952588 B --- -- ----- wav 1.0000 sparkplug2012-06-17_mk41sbmix_1644_d1t08.wav
70:41.41 748209184 B 1.0000 (8 files)

comment
Reviews

Reviewer: dwave77 - favoritefavoritefavoritefavoritefavorite - June 21, 2012
Subject: on fire!
just wanted to say that this recording is sweet! thanks a ton! I was right up for this one, it was a beautiful day filled with discs, awesome music and fantastic beer! Sparkplug was on fire!!!! and also, RIP Melvin Sparks and thanks for your contribution to the world of music. Disc Jam is definitely an event that shouldn't be missed.
SIMILAR ITEMS (based on metadata)
Sparkplug
by Sparkplug
etree
eye 82
favorite 0
comment 0
Source: Schoeps Mk41>KC5>CMC6>Sonosax SX-R4(24bit/96khz) & Soundboard
Sparkplug
etree
eye 135
favorite 0
comment 0
Source: source1: akg 481 (on stage) > V2 > R4 > WAV (24/96k), source2: sbd > R-44 > WAV (24/48k)
The Mushroom Cloud
by The Mushroom Cloud
etree
eye 142
favorite 0
comment 1
favoritefavoritefavoritefavoritefavorite ( 1 reviews )
Source: Schoeps Mk41>KC5>CMC6>Sonosax SX-R4(24bit/96khz) & Soundboard
Dub Apocalypse
by Dub Apocalypse
etree
eye 71
favorite 0
comment 0
Source: Schoeps Mk41>KC5>CMC6>Sonosax SX-R4(24bit/96khz) & Soundboard
William Thompson Funk Experiment
by William Thompson Funk Experiment
etree
eye 82
favorite 0
comment 0
Source: Schoeps Mk41>KC5>CMC6>Sonosax SX-R4(24bit/96khz) & Soundboard
Timbre Coup
by Timbre Coup
etree
eye 35
favorite 0
comment 0
Source: Schoeps Mk41>KC5>CMC6>Sonosax SX-R4(24bit/96khz) & Soundboard
The Cyborg Trio
by The Cyborg Trio
etree
eye 76
favorite 0
comment 0
Source: Schoeps Mk41>KC5>CMC6>Sonosax SX-R4(24bit/96khz) & Soundboard
Don't Let Go
by Don't Let Go
etree
eye 73
favorite 0
comment 0
Source: Schoeps Mk41>KC5>CMC6>Sonosax SX-R4(24bit/96khz) & Soundboard
Club d'Elf
by Club d'Elf
etree
eye 243
favorite 2
comment 1
favoritefavoritefavoritefavoritefavorite ( 1 reviews )
Source: Schoeps Mk41>KC5>CMC6>Sonosax SX-R4(24bit/96khz) & Soundboard
Fennario
by Fennario
etree
eye 83
favorite 0
comment 0
Source: Schoeps Mk41>KC5>CMC6>Sonosax SX-R4(24bit/96khz) & Soundboard